<?xml version="1.0" standalone="no"?>
<!DOCTYPE svg PUBLIC "-//W3C//DTD SVG 1.1//EN" "http://www.w3.org/Graphics/SVG/1.1/DTD/svg11.dtd" >
<svg xmlns="http://www.w3.org/2000/svg">
<metadata></metadata>
<defs>
<font id="fira_sans_otregular" horiz-adv-x="1024" >
<font-face units-per-em="2048" ascent="1638" descent="-410" />
<missing-glyph horiz-adv-x="542" />
<glyph horiz-adv-x="0" />
<glyph horiz-adv-x="0" />
<glyph horiz-adv-x="682" />
<glyph unicode="&#xd;" horiz-adv-x="542" />
<glyph unicode=" "  horiz-adv-x="542" />
<glyph unicode="&#x09;" horiz-adv-x="542" />
<glyph unicode="&#xa0;" horiz-adv-x="542" />
<glyph unicode="!" horiz-adv-x="542" d="M129 119q0 59 40.5 100t100.5 41q61 0 102.5 -41t41.5 -100q0 -60 -41.5 -102t-102.5 -42q-60 0 -100.5 42t-40.5 102zM164 1411h209l-21 -940h-166z" />
<glyph unicode="&#x22;" horiz-adv-x="931" d="M180 1411h203v-537h-139zM549 1411h203v-537h-140z" />
<glyph unicode="#" d="M6 342v141h176l56 408h-164v143h182l43 336h160l-45 -336h288l43 336h160l-45 -336h158v-143h-176l-54 -408h162v-141h-182l-43 -342h-160l45 342h-286l-45 -342h-160l45 342h-158zM342 483h287l55 408h-289z" />
<glyph unicode="$" horiz-adv-x="1030" d="M29 156l108 118q149 -143 355 -143q130 0 213 62.5t83 181.5q0 100 -60.5 154t-233.5 108q-207 65 -309.5 160t-102.5 237q0 139 94 231.5t252 112.5v312h160v-308q207 -17 354 -155l-108 -115q-131 123 -312 123q-109 0 -177.5 -49t-68.5 -146q0 -60 25.5 -98.5 t90 -72.5t190.5 -74q74 -23 127 -44.5t108.5 -56t89.5 -76t56 -102t22 -135.5q0 -166 -103 -270t-294 -123v-303h-162v301q-245 21 -397 170z" />
<glyph unicode="%" horiz-adv-x="1740" d="M154 1044q0 157 93 252t238 95q147 0 240.5 -94.5t93.5 -252.5q0 -157 -93.5 -251.5t-240.5 -94.5q-145 0 -238 94.5t-93 251.5zM319 1044q0 -43 8 -79.5t25.5 -69t51.5 -51.5t81 -19q166 0 166 219q0 43 -7.5 79.5t-25 69.5t-51.5 52t-82 19q-90 0 -128 -62t-38 -158z M332 23l946 1427l133 -80l-948 -1427zM922 322q0 158 93 252t240 94t239.5 -94t92.5 -252t-92.5 -252.5t-239.5 -94.5t-240 94.5t-93 252.5zM1090 322q0 -43 7.5 -79.5t25.5 -69.5t51.5 -52t80.5 -19q166 0 166 220q0 43 -7.5 79t-25 68.5t-51.5 51t-82 18.5 q-165 0 -165 -217z" />
<glyph unicode="&#x26;" horiz-adv-x="1591" d="M188 358q0 128 66 225t201 183q-75 68 -116 113.5t-70 105.5t-29 125q0 145 98 235.5t278 90.5q171 0 277 -87t106 -223q0 -63 -22 -118.5t-65 -101.5t-89 -81t-110 -73l362 -353q85 141 137 357l177 -51q-74 -243 -189 -414l326 -291h-248l-184 162q-187 -187 -439 -187 q-222 0 -344.5 102t-122.5 281zM381 371q0 -115 71.5 -180.5t202.5 -65.5q186 0 324 141l-412 400q-101 -65 -143.5 -133.5t-42.5 -161.5zM424 1108q0 -65 42.5 -121t133.5 -137q105 63 159 124.5t54 135.5q0 86 -52.5 136t-142.5 50q-95 0 -144.5 -50.5t-49.5 -137.5z" />
<glyph unicode="'" horiz-adv-x="563" d="M180 1411h203v-537h-139z" />
<glyph unicode="(" horiz-adv-x="665" d="M82 717q0 79 7 153.5t17 136t31 126t37.5 111.5t48.5 106t53 96t61.5 95.5t63 90t68.5 92.5l119 -82q-80 -112 -130 -197.5t-94.5 -197t-64.5 -240.5t-20 -290q0 -160 20 -289.5t64.5 -241t94.5 -197.5t130 -198l-119 -82q-45 61 -68.5 93t-63.5 90t-61 95.5t-52.5 96.5 t-48.5 106t-38 111.5t-31 126t-17 136t-7 153.5z" />
<glyph unicode=")" horiz-adv-x="665" d="M78 -209q80 112 130 198t94.5 197.5t64.5 241t20 289.5q0 161 -20 290t-64.5 240.5t-94.5 197t-130 197.5l119 82q46 -61 68.5 -92.5t63 -90t61.5 -95.5t53 -96t48.5 -106t37.5 -111.5t31 -126t17 -136t7 -153.5t-7 -153.5t-17 -136t-31 -126t-38 -111.5t-48.5 -106 t-52.5 -96.5t-61 -95.5t-63.5 -90t-68.5 -93z" />
<glyph unicode="*" horiz-adv-x="901" d="M49 1147l55 174l285 -123l-31 313h185l-33 -313l287 123l55 -174l-301 -66l215 -223l-150 -113l-163 267l-154 -271l-154 105l207 235z" />
<glyph unicode="+" d="M127 559v156h297v307h172v-307h299v-156h-299v-305h-172v305h-297z" />
<glyph unicode="," horiz-adv-x="542" d="M104 -340l82 340q-57 44 -57 119q0 59 40.5 100t100.5 41q61 0 102.5 -41t41.5 -100q0 -65 -37 -146l-137 -313h-136z" />
<glyph unicode="-" horiz-adv-x="829" d="M125 561v160h580v-160h-580z" />
<glyph unicode="." horiz-adv-x="542" d="M129 119q0 59 40.5 100t100.5 41q61 0 102.5 -41t41.5 -100q0 -60 -41.5 -102t-102.5 -42q-60 0 -100.5 42t-40.5 102z" />
<glyph unicode="/" horiz-adv-x="1064" d="M215 -174l475 1833l160 -37l-473 -1835z" />
<glyph unicode="0" horiz-adv-x="1146" d="M115 684q0 345 115 526t343 181t343.5 -182t115.5 -525q0 -345 -115.5 -527t-343.5 -182t-343 182t-115 527zM311 684q0 -296 65 -427.5t197 -131.5q131 0 197 132t66 427q0 293 -66 425t-197 132q-132 0 -197 -131.5t-65 -425.5z" />
<glyph unicode="1" horiz-adv-x="819" d="M37 1104l416 266h165v-1370h-188v1163l-305 -190z" />
<glyph unicode="2" horiz-adv-x="1038" d="M55 1184q168 207 416 207q187 0 299.5 -108t112.5 -279q0 -92 -30.5 -177.5t-105.5 -188.5t-178 -212t-270 -268h616l-22 -158h-809v150q155 155 249.5 255t169.5 189t111.5 153.5t54 124t17.5 125.5q0 113 -61.5 175.5t-163.5 62.5q-84 0 -147.5 -35t-131.5 -115z" />
<glyph unicode="3" horiz-adv-x="1028" d="M29 164l125 102q114 -137 284 -137q128 0 202.5 73t74.5 195q0 134 -70 190t-203 56h-88l23 145h55q107 0 177.5 63.5t70.5 178.5q0 96 -62 152.5t-165 56.5q-81 0 -147 -29t-136 -94l-98 113q174 162 391 162q188 0 296.5 -101.5t108.5 -247.5q0 -123 -72.5 -205.5 t-183.5 -105.5l2 -8q125 -11 211 -97t86 -231q0 -183 -128 -301.5t-339 -118.5q-255 0 -415 189z" />
<glyph unicode="4" horiz-adv-x="1073" d="M76 338v135l395 918l158 -66l-355 -838h371l19 369h163v-369h179v-149h-179v-338h-182v338h-569z" />
<glyph unicode="5" horiz-adv-x="1054" d="M68 160l129 104q115 -135 278 -135q128 0 204.5 85.5t76.5 227.5q0 150 -68 217.5t-182 67.5q-84 0 -184 -47h-148v690h737l-22 -147h-535v-396q93 45 209 45q175 0 281 -116t106 -318q0 -203 -130.5 -333t-342.5 -130q-252 0 -409 185z" />
<glyph unicode="6" horiz-adv-x="1095" d="M115 651q0 219 61.5 386.5t178 260.5t272.5 93q160 0 276 -82l-80 -127q-81 59 -198 59q-143 0 -228.5 -141.5t-91.5 -378.5q125 180 318 180q77 0 144 -27t119.5 -79t82.5 -137t30 -193q0 -219 -124 -354.5t-306 -135.5q-120 0 -208.5 48.5t-141.5 139.5t-78.5 212.5 t-25.5 275.5zM305 561q6 -224 69.5 -330t194.5 -106q115 0 177.5 90t62.5 244q0 293 -221 293q-82 0 -156 -51.5t-127 -139.5z" />
<glyph unicode="7" horiz-adv-x="907" d="M51 1217v153h797v-141l-512 -1249l-174 53l495 1184h-606z" />
<glyph unicode="8" horiz-adv-x="1138" d="M96 362q0 238 271 357q-213 107 -213 319q0 90 38.5 160.5t100.5 111t132.5 61t143.5 20.5q63 0 122 -12.5t113 -40t94 -67t63.5 -99t23.5 -130.5q0 -188 -233 -307q288 -123 288 -368q0 -171 -133 -281.5t-342 -110.5q-210 0 -339.5 108.5t-129.5 278.5zM293 362 q0 -112 72 -174.5t200 -62.5q126 0 202.5 69t76.5 171q0 53 -18 94t-38.5 67t-76 54.5t-90.5 42t-121 44.5q-5 2 -8 3q-199 -96 -199 -308zM338 1036q0 -102 67.5 -155.5t219.5 -100.5q94 53 135 112t41 144q0 96 -63 154.5t-169 58.5q-107 0 -169 -56t-62 -157z" />
<glyph unicode="9" horiz-adv-x="1093" d="M96 938q0 139 60.5 243.5t159.5 157t219 52.5q205 0 323.5 -145.5t118.5 -387.5q0 -164 -28 -290.5t-82.5 -221.5t-145 -168t-203.5 -125.5t-270 -97.5l-43 141q260 73 411 211.5t168 339.5l-4 2q-49 -67 -129.5 -109t-179.5 -42q-162 0 -268.5 120t-106.5 320zM287 934 q0 -142 62.5 -215.5t164.5 -73.5q163 0 272 168q0 428 -254 428q-112 0 -178.5 -81t-66.5 -226z" />
<glyph unicode=":" horiz-adv-x="542" d="M129 119q0 59 40.5 100t100.5 41q61 0 102.5 -41t41.5 -100q0 -60 -41.5 -102t-102.5 -42q-60 0 -100.5 42t-40.5 102zM129 883q0 59 40.5 100t100.5 41q61 0 102.5 -41t41.5 -100q0 -60 -41.5 -102t-102.5 -42q-60 0 -100.5 42t-40.5 102z" />
<glyph unicode=";" horiz-adv-x="542" d="M104 -340l82 340q-57 44 -57 119q0 59 40.5 100t100.5 41q61 0 102.5 -41t41.5 -100q0 -65 -37 -146l-137 -313h-136zM129 883q0 59 40.5 100t100.5 41q61 0 102.5 -41t41.5 -100q0 -60 -41.5 -102t-102.5 -42q-60 0 -100.5 42t-40.5 102z" />
<glyph unicode="&#x3c;" d="M127 586v192l731 350l74 -149l-656 -297l656 -291l-74 -155z" />
<glyph unicode="=" d="M127 360v160h770v-160h-770zM127 754v159h770v-159h-770z" />
<glyph unicode="&#x3e;" d="M92 387l656 295l-656 291l74 155l731 -350v-192l-731 -350z" />
<glyph unicode="?" horiz-adv-x="1038" d="M86 1231q176 205 428 205q94 0 169.5 -27t123 -72t73 -101.5t25.5 -119.5q0 -66 -20.5 -119t-53 -88t-72 -65t-79 -58.5t-72 -60.5t-53 -79.5t-20.5 -106.5v-68h-187v78q0 68 20 123.5t51.5 93.5t70 70.5t77.5 60.5t70.5 56.5t51.5 67t20 83.5q0 84 -56.5 130t-156.5 46 q-158 0 -279 -147zM305 119q0 59 40.5 100t100.5 41q61 0 102.5 -41t41.5 -100q0 -60 -41.5 -102t-102.5 -42q-60 0 -100.5 42t-40.5 102z" />
<glyph unicode="@" horiz-adv-x="2088" d="M143 492q0 200 66 373t186 299.5t300.5 199t398.5 72.5q203 0 367.5 -65.5t269 -178t160 -256.5t55.5 -307q0 -128 -25 -237t-73 -193.5t-126.5 -132.5t-179.5 -48q-61 0 -109.5 19t-78 51t-47.5 65.5t-25 69.5h-8q-34 -83 -105.5 -138.5t-183.5 -55.5 q-167 0 -260.5 119.5t-93.5 324.5q0 258 123 396.5t323 138.5q167 0 322 -82v-582q0 -180 139 -180q217 0 217 461q0 301 -174 478t-487 177q-147 0 -270 -38.5t-213 -108.5t-152.5 -168t-93.5 -217.5t-31 -255.5q0 -170 49.5 -312t142.5 -244.5t234 -159.5t317 -57 q194 0 393 70l52 -145q-115 -40 -216.5 -60t-230.5 -20q-274 0 -485 113t-329 324.5t-118 490.5zM815 473q0 -150 49 -228.5t144 -78.5q152 0 221 176v496q-70 34 -146 34q-268 0 -268 -399z" />
<glyph unicode="A" horiz-adv-x="1185" d="M12 0l459 1411h246l457 -1411h-205l-109 354h-543l-108 -354h-197zM365 512h448l-219 723h-8z" />
<glyph unicode="B" horiz-adv-x="1282" d="M215 0v1411h383q80 0 149.5 -10t136 -36t114 -65.5t76 -102t28.5 -142.5q0 -125 -72.5 -201.5t-173.5 -99.5v-9q46 -9 86.5 -23.5t82 -41.5t71 -63.5t48.5 -91.5t19 -122q0 -90 -30.5 -160.5t-81 -115t-121 -74t-144.5 -41.5t-157 -12h-414zM410 156h245q45 0 84.5 5.5 t81 22t70.5 42.5t48 70t19 103q0 265 -294 265h-254v-508zM410 813h239q254 0 254 229q0 113 -69.5 164t-200.5 51h-223v-444z" />
<glyph unicode="C" horiz-adv-x="1169" d="M127 707q0 173 47 313.5t128 230t186.5 137.5t224.5 48q128 0 218 -34t179 -106l-106 -125q-125 105 -279 105q-82 0 -150 -30t-123.5 -94.5t-86.5 -177.5t-31 -267q0 -149 29.5 -260.5t83 -177.5t122.5 -98t154 -32q100 0 171.5 32.5t135.5 88.5l100 -127 q-166 -158 -415 -158q-128 0 -235.5 48t-186 139t-122.5 230.5t-44 314.5z" />
<glyph unicode="D" horiz-adv-x="1343" d="M215 0v1411h315q78 0 145.5 -7.5t139 -28.5t129 -54t109.5 -87.5t87.5 -126t56 -172t20.5 -222.5t-21 -223.5t-57 -173.5t-87.5 -128.5t-108.5 -91t-125 -57t-132 -31t-133 -8.5h-338zM410 154h165q55 0 104.5 10t100 33t91 65.5t72.5 102t49.5 148.5t17.5 200 q0 100 -14 181t-37.5 136.5t-58.5 97t-71.5 65.5t-82.5 38.5t-86 19t-87 4.5h-163v-1101z" />
<glyph unicode="E" horiz-adv-x="1105" d="M215 0v1411h764l-23 -156h-546v-460h475v-156h-475v-483h585v-156h-780z" />
<glyph unicode="F" horiz-adv-x="1015" d="M215 0v1411h750l-23 -156h-532v-481h460v-153h-460v-621h-195z" />
<glyph unicode="G" horiz-adv-x="1306" d="M127 707q0 141 34 261.5t92.5 205.5t137 145t167.5 88.5t183 28.5q140 0 236 -38.5t186 -119.5l-114 -119q-126 117 -306 117q-65 0 -122.5 -18t-111 -60t-91.5 -106t-61 -162.5t-23 -222.5q0 -298 97 -435t288 -137q156 0 268 66v417h-266l-23 158h482v-676 q-212 -125 -475 -125q-269 0 -423.5 187.5t-154.5 544.5z" />
<glyph unicode="H" horiz-adv-x="1392" d="M215 0v1411h195v-590h573v590h195v-1411h-195v662h-573v-662h-195z" />
<glyph unicode="I" horiz-adv-x="626" d="M215 0v1411h197v-1411h-197z" />
<glyph unicode="J" horiz-adv-x="630" d="M10 -133q133 53 177 123t44 215v1206h195v-1214q0 -107 -25 -187t-75.5 -135.5t-113.5 -92.5t-153 -67z" />
<glyph unicode="K" horiz-adv-x="1216" d="M215 0v1411h195v-1411h-195zM420 754l536 657h222l-535 -645l574 -766h-240z" />
<glyph unicode="L" horiz-adv-x="1030" d="M215 0v1411h195v-1241h579l-22 -170h-752z" />
<glyph unicode="M" horiz-adv-x="1630" d="M127 0l117 1411h262l309 -1030h8l299 1030h264l117 -1411h-188l-62 723q-22 274 -22 469h-8l-316 -1042h-186l-328 1042h-8q0 -235 -18 -469l-56 -723h-184z" />
<glyph unicode="N" horiz-adv-x="1411" d="M215 0v1411h258l559 -1200h8q-26 214 -26 512v688h182v-1411h-264l-553 1194h-8q6 -51 16 -207.5t10 -298.5v-688h-182z" />
<glyph unicode="O" horiz-adv-x="1425" d="M127 702q0 347 160.5 540.5t425.5 193.5q266 0 425.5 -190t159.5 -541q0 -346 -160 -538t-425 -192q-267 0 -426.5 188.5t-159.5 538.5zM334 702q0 -296 100.5 -431.5t278.5 -135.5q379 0 379 570q0 571 -379 571t-379 -574z" />
<glyph unicode="P" horiz-adv-x="1200" d="M215 0v1411h369q263 0 407 -109t144 -327q0 -121 -40 -210t-114.5 -142.5t-172 -79t-220.5 -25.5h-178v-518h-195zM410 672h194q75 0 130 13.5t101 46t69.5 93t23.5 148.5q0 150 -86.5 218.5t-237.5 68.5h-194v-588z" />
<glyph unicode="Q" horiz-adv-x="1425" d="M127 702q0 347 160.5 540.5t425.5 193.5q266 0 425.5 -190t159.5 -541q0 -465 -288 -617l2 -8q216 0 397 -127l-127 -164q-119 107 -244.5 149t-318.5 42q-272 0 -432 186t-160 536zM334 702q0 -296 100.5 -431.5t278.5 -135.5q379 0 379 570q0 571 -379 571t-379 -574z " />
<glyph unicode="R" horiz-adv-x="1243" d="M215 0v1411h371q264 0 400 -100.5t136 -298.5q0 -151 -93.5 -250.5t-244.5 -138.5l414 -623h-231l-377 598h-180v-598h-195zM410 748h196q153 0 231 62.5t78 201.5q0 131 -75.5 189.5t-235.5 58.5h-194v-512z" />
<glyph unicode="S" horiz-adv-x="1116" d="M55 158l113 125q154 -148 364 -148q132 0 218 65t86 187q0 101 -64.5 159t-241.5 113q-216 66 -316.5 158t-100.5 250q0 163 123.5 266t320.5 103q142 0 244 -40.5t192 -123.5l-110 -123q-138 127 -318 127q-111 0 -182.5 -52t-71.5 -149q0 -92 62 -144.5t248 -109.5 q77 -24 131 -45.5t112 -57.5t93 -78t58 -105t23 -142q0 -187 -134 -302.5t-365 -115.5q-298 0 -484 183z" />
<glyph unicode="T" horiz-adv-x="1058" d="M33 1245v166h1009l-20 -166h-389v-1245h-195v1245h-405z" />
<glyph unicode="U" horiz-adv-x="1376" d="M195 459v952h194v-944q0 -328 297 -328q152 0 225.5 81.5t73.5 246.5v944h197v-952q0 -219 -131 -351.5t-365 -132.5q-236 0 -363.5 131.5t-127.5 352.5z" />
<glyph unicode="V" horiz-adv-x="1198" d="M31 1411h209l360 -1188h8l363 1188h196l-462 -1411h-209z" />
<glyph unicode="W" horiz-adv-x="1699" d="M51 1411h191l223 -1223h8l272 1223h207l279 -1216h8l231 1216h179l-287 -1411h-254l-258 1143h-8l-260 -1143h-244z" />
<glyph unicode="X" horiz-adv-x="1136" d="M10 0l434 752l-397 659h221l291 -524h8l303 524h209l-403 -649l450 -762h-221l-342 618h-8l-336 -618h-209z" />
<glyph unicode="Y" horiz-adv-x="1126" d="M10 1411h215l340 -690h8l340 690h203l-454 -868v-543h-197v541z" />
<glyph unicode="Z" horiz-adv-x="1067" d="M63 0v156l705 1091h-631v164h842v-158l-698 -1087h698l-23 -166h-893z" />
<glyph unicode="[" horiz-adv-x="665" d="M137 -238v1909h424v-158h-246v-1595h246v-156h-424z" />
<glyph unicode="\" horiz-adv-x="1064" d="M215 1622l160 37l475 -1833l-162 -39z" />
<glyph unicode="]" horiz-adv-x="665" d="M104 -82h246v1595h-246v158h424v-1909h-424v156z" />
<glyph unicode="^" horiz-adv-x="1064" d="M61 1079l388 641h167l388 -641h-201l-273 477l-270 -477h-199z" />
<glyph unicode="_" horiz-adv-x="1064" d="M35 -129h995v-162h-995v162z" />
<glyph unicode="`" horiz-adv-x="608" d="M61 1479l97 159l389 -231l-58 -100z" />
<glyph unicode="a" horiz-adv-x="1118" d="M92 309q0 168 131 258t377 90h139v84q0 112 -56 160.5t-177 48.5q-126 0 -283 -55l-49 139q190 70 361 70q200 0 296.5 -91.5t96.5 -260.5v-508q0 -62 18.5 -92t61.5 -46l-45 -131q-153 19 -199 152q-113 -152 -322 -152q-162 0 -256 91t-94 243zM299 317 q0 -101 47.5 -150.5t147.5 -49.5q148 0 245 149v266h-129q-166 0 -238.5 -55.5t-72.5 -159.5z" />
<glyph unicode="b" horiz-adv-x="1212" d="M201 0v1513l188 23v-594q124 162 305 162q207 0 304.5 -148t97.5 -415q0 -166 -47.5 -292.5t-145 -200t-233.5 -73.5q-185 0 -291 136l-12 -111h-166zM389 260q42 -64 103.5 -99.5t132.5 -35.5q268 0 268 416q0 413 -244 413q-149 0 -260 -168v-526z" />
<glyph unicode="c" horiz-adv-x="974" d="M117 535q0 123 31 226.5t90.5 180t152 119.5t209.5 43q187 0 326 -117l-92 -123q-63 47 -117.5 65.5t-116.5 18.5q-134 0 -207.5 -103.5t-73.5 -309.5q0 -400 281 -400q119 0 236 88l90 -129q-145 -119 -328 -119q-236 0 -358.5 150t-122.5 410z" />
<glyph unicode="d" horiz-adv-x="1220" d="M117 539q0 249 115 407t311 158q178 0 288 -125v557l189 -23v-1513h-166l-16 139q-115 -164 -310 -164q-204 0 -307.5 150.5t-103.5 413.5zM319 539q0 -414 252 -414q152 0 260 166v530q-43 63 -105 98t-134 35q-131 0 -202 -104t-71 -311z" />
<glyph unicode="e" horiz-adv-x="1118" d="M117 539q0 250 122.5 407.5t333.5 157.5q210 0 323.5 -141.5t113.5 -391.5q0 -46 -4 -96h-689q12 -175 88 -260.5t203 -85.5q77 0 140.5 22.5t130.5 77.5l86 -125q-161 -129 -361 -129q-236 0 -361.5 152.5t-125.5 411.5zM317 614h506q-6 340 -250 340q-113 0 -179.5 -85 t-76.5 -255z" />
<glyph unicode="f" horiz-adv-x="688" d="M43 934v145h172v148q0 139 89 224t249 85q130 0 258 -55l-59 -138q-93 41 -189 41q-87 0 -123.5 -37.5t-36.5 -117.5v-150h263l-21 -145h-242v-934h-188v934h-172z" />
<glyph unicode="g" horiz-adv-x="1077" d="M63 -109h170q0 -101 74.5 -140.5t218.5 -39.5q310 0 310 166q0 75 -50 115.5t-180 40.5h-143q-131 0 -209 57t-78 154q0 50 28 97.5t79 84.5q-82 47 -126 124t-44 175q0 164 114.5 271.5t307.5 107.5q162 0 272.5 25t214.5 71l55 -170q-102 -33 -303 -33v-8 q81 -37 126.5 -106t45.5 -160q0 -161 -109.5 -263t-297.5 -102q-70 0 -144 19q-45 -41 -45 -98q0 -40 28 -64.5t89 -24.5h149q196 0 303 -78t107 -225q0 -108 -68.5 -182.5t-178.5 -107.5t-253 -33q-237 0 -350 79.5t-113 239.5v8zM305 725q0 -108 61 -175t169 -67 t166.5 65.5t58.5 178.5q0 117 -56.5 179.5t-168.5 62.5q-109 0 -169.5 -68t-60.5 -176z" />
<glyph unicode="h" horiz-adv-x="1206" d="M201 0v1511l188 21v-590q65 77 151 119.5t181 42.5q293 0 293 -320v-784h-189v772q0 98 -38.5 141t-129.5 43q-80 0 -149 -50t-119 -124v-782h-188z" />
<glyph unicode="i" horiz-adv-x="571" d="M154 1454q0 55 36.5 91t94.5 36t95.5 -36.5t37.5 -90.5q0 -56 -37.5 -92.5t-95.5 -36.5t-94.5 36.5t-36.5 92.5zM190 0v1079h189v-1079h-189z" />
<glyph unicode="j" horiz-adv-x="571" d="M-18 -297q60 28 93.5 51t62.5 61.5t40.5 95.5t11.5 142v1026h189v-1013q0 -92 -14 -162.5t-38.5 -120t-68 -90t-90 -68t-117.5 -59.5zM154 1454q0 55 36.5 91t94.5 36t95.5 -36.5t37.5 -90.5q0 -56 -37.5 -92.5t-95.5 -36.5t-94.5 36.5t-36.5 92.5z" />
<glyph unicode="k" horiz-adv-x="1054" d="M201 0v1513l188 23v-1536h-188zM401 590l404 489h211l-404 -477l443 -602h-226z" />
<glyph unicode="l" horiz-adv-x="593" d="M180 233v1280l189 23v-1319q0 -46 16 -66t51 -20q40 0 70 12l49 -131q-76 -37 -154 -37q-102 0 -161.5 63t-59.5 195z" />
<glyph unicode="m" horiz-adv-x="1769" d="M201 0v1079h161l15 -147q64 83 147 127.5t172 44.5q213 0 267 -172q66 80 152 126t175 46q150 0 218.5 -81.5t68.5 -238.5v-784h-188v760q0 105 -34 150.5t-116 45.5q-72 0 -140.5 -50.5t-115.5 -123.5v-782h-188v774q0 97 -35 139.5t-115 42.5q-72 0 -140.5 -50.5 t-115.5 -123.5v-782h-188z" />
<glyph unicode="n" horiz-adv-x="1206" d="M201 0v1079h161l15 -147q65 82 156 127t188 45q293 0 293 -320v-784h-189v772q0 98 -38.5 141t-129.5 43q-80 0 -149 -50t-119 -124v-782h-188z" />
<glyph unicode="o" horiz-adv-x="1196" d="M117 539q0 255 128.5 410t354.5 155q227 0 353 -151.5t126 -411.5q0 -255 -128 -410.5t-353 -155.5q-228 0 -354.5 152t-126.5 412zM319 539q0 -412 279 -412t279 414q0 411 -277 411q-281 0 -281 -413z" />
<glyph unicode="p" horiz-adv-x="1212" d="M201 -436v1515h161l15 -147q60 83 142.5 127.5t176.5 44.5q207 0 303.5 -148t96.5 -415q0 -254 -110.5 -410t-313.5 -156q-180 0 -283 123v-512zM389 260q86 -131 238 -131q266 0 266 412q0 413 -244 413q-149 0 -260 -168v-526z" />
<glyph unicode="q" horiz-adv-x="1220" d="M117 539q0 250 115.5 407.5t312.5 157.5q188 0 299 -139l14 114h162v-1515l-189 22v545q-115 -156 -303 -156q-209 0 -310 149t-101 415zM319 539q0 -206 65 -308t187 -102q155 0 260 162v530q-41 63 -103.5 98t-135.5 35q-131 0 -202 -104t-71 -311z" />
<glyph unicode="r" horiz-adv-x="786" d="M201 0v1079h164l22 -207q93 232 283 232q56 0 106 -12l-35 -185q-54 13 -94 13q-95 0 -161.5 -81.5t-96.5 -205.5v-633h-188z" />
<glyph unicode="s" horiz-adv-x="970" d="M53 117l105 119q131 -109 299 -109q103 0 165 44.5t62 119.5q0 80 -53 121t-211 80q-157 39 -238.5 111.5t-81.5 197.5q0 134 115.5 218.5t288.5 84.5q196 0 348 -109l-84 -127q-127 86 -272 86q-89 0 -145 -38.5t-56 -102.5q0 -66 53.5 -102t196.5 -74q64 -18 109.5 -35 t92 -44.5t75.5 -60.5t47 -82t18 -110q0 -83 -36 -148.5t-97 -104t-135.5 -58t-157.5 -19.5q-245 0 -408 142z" />
<glyph unicode="t" horiz-adv-x="751" d="M43 936v143h172v244l188 23v-267h273l-23 -143h-250v-645q0 -83 30 -121.5t99 -38.5t144 47l72 -129q-100 -74 -242 -74q-146 0 -218.5 84.5t-72.5 229.5v647h-172z" />
<glyph unicode="u" horiz-adv-x="1191" d="M190 295v784h189v-762q0 -105 36.5 -149.5t123.5 -44.5q79 0 148.5 47t115.5 119v790h188v-1079h-162l-14 143q-63 -81 -148.5 -124.5t-179.5 -43.5q-297 0 -297 320z" />
<glyph unicode="v" horiz-adv-x="1011" d="M23 1079h200l283 -905h8l281 905h194l-375 -1079h-219z" />
<glyph unicode="w" horiz-adv-x="1492" d="M43 1079h188l191 -929h8l219 929h211l209 -925h8l193 925h180l-246 -1079h-256l-196 889h-9l-198 -889h-250z" />
<glyph unicode="x" horiz-adv-x="980" d="M4 0l375 569l-332 510h221l221 -387h9l223 387h213l-330 -501l373 -578h-227l-261 449h-8l-264 -449h-213z" />
<glyph unicode="y" horiz-adv-x="1005" d="M23 1079h200l279 -927h8l278 927h195l-360 -1085q-24 -72 -53 -129.5t-71 -111t-93.5 -91.5t-122.5 -64t-156 -34l-27 147q82 14 139 37t96 60.5t63 81.5t44 110h-63z" />
<glyph unicode="z" horiz-adv-x="901" d="M53 0v141l561 779h-514v159h729v-143l-563 -778h570l-23 -158h-760z" />
<glyph unicode="{" horiz-adv-x="665" d="M53 641v152q87 0 115.5 34t28.5 117v463q0 170 94 237.5t289 67.5v-145q-111 0 -158 -32t-47 -108v-489q0 -102 -39 -150t-115 -67v-8q76 -19 115 -67t39 -150v-490q0 -77 46.5 -108t158.5 -31v-146q-195 0 -289 68t-94 238v460q0 83 -29 118.5t-115 35.5z" />
<glyph unicode="|" horiz-adv-x="825" d="M328 -209v1862h170v-1862h-170z" />
<glyph unicode="}" horiz-adv-x="665" d="M86 -133q112 0 158.5 31t46.5 108v490q0 102 38.5 150t114.5 67v8q-76 19 -114.5 67t-38.5 150v489q0 76 -47 108t-158 32v145q195 0 289 -67.5t94 -237.5v-463q0 -83 28.5 -117t114.5 -34v-152q-86 0 -114.5 -35t-28.5 -119v-460q0 -170 -94 -238t-289 -68v146z" />
<glyph unicode="~" d="M84 588q40 78 107.5 133t166.5 55q55 0 106.5 -18t83 -39t67 -39t63.5 -18q47 0 77.5 26t59.5 76l125 -66q-95 -186 -274 -186q-55 0 -106.5 18.5t-83 40t-67 40t-63.5 18.5q-46 0 -76.5 -27t-60.5 -78z" />
<glyph unicode="&#xa1;" horiz-adv-x="542" d="M129 881q0 60 40.5 101.5t100.5 41.5t102 -41.5t42 -101.5q0 -59 -42 -100.5t-102 -41.5t-100.5 41.5t-40.5 100.5zM164 -406l26 934h160l29 -934h-215z" />
<glyph unicode="&#xa2;" horiz-adv-x="976" d="M109 535q0 227 102.5 377.5t292.5 179.5v309h162v-307q132 -15 249 -107l-92 -123q-63 47 -117.5 65.5t-117.5 18.5q-132 0 -204.5 -103.5t-72.5 -309.5q0 -400 279 -400q119 0 235 90l90 -131q-108 -89 -249 -108v-301h-164v303q-192 26 -292.5 169.5t-100.5 377.5z" />
<glyph unicode="&#xa3;" d="M59 0v150q47 15 79 36.5t49.5 43.5t26.5 56t11 61.5t2 72.5v229h-166v123h166v238q0 169 102 275t285 106q230 0 361 -181l-125 -94q-51 65 -103.5 93t-123.5 28q-99 0 -154 -58t-55 -167v-240h415v-123h-415v-221q0 -94 -24.5 -160.5t-88.5 -101.5v-8h643l-22 -158h-863 z" />
<glyph unicode="&#xa4;" horiz-adv-x="1146" d="M29 264l180 180q-72 112 -72 256q0 141 70 252l-178 183l114 114l181 -182q111 68 251 68q145 0 248 -68l181 180l114 -114l-176 -179q74 -112 74 -254q0 -140 -76 -258l178 -176l-114 -114l-183 178q-104 -66 -246 -66q-144 0 -251 66l-181 -180zM319 700 q0 -136 65.5 -211t190.5 -75t189.5 74.5t64.5 211.5q0 136 -65 211.5t-189 75.5t-190 -76t-66 -211z" />
<glyph unicode="&#xa5;" d="M-10 1370h209l315 -596h8l314 596h198l-377 -661h240v-125h-289v-183h289v-122h-289v-279h-192v279h-289v122h289v183h-289v125h238z" />
<glyph unicode="&#xa6;" horiz-adv-x="825" d="M328 -209v729h170v-729h-170zM328 924v729h170v-729h-170z" />
<glyph unicode="&#xa7;" d="M109 637q0 76 43.5 143t111.5 111q-106 83 -106 201q0 135 109.5 214.5t273.5 79.5q197 0 354 -110l-88 -119q-63 43 -125 63.5t-143 20.5q-87 0 -141 -36.5t-54 -98.5q0 -70 48.5 -110.5t201.5 -92.5q171 -58 245 -125t74 -184q0 -70 -42 -131t-111 -107 q108 -81 108 -202q0 -136 -111 -217.5t-288 -81.5q-208 0 -356 112l86 123q127 -88 276 -88q89 0 147 35t58 98q0 72 -47.5 110t-202.5 89q-174 57 -247.5 121.5t-73.5 181.5zM291 662q0 -35 7.5 -58t26 -42t50 -35t77.5 -33.5t112 -40.5l28.5 -9.5t28 -10t32.5 -11.5 q80 77 80 151q0 82 -60 120t-291 121l-3 1.5t-3 1t-3.5 1t-3.5 1.5q-78 -78 -78 -157z" />
<glyph unicode="&#xa8;" horiz-adv-x="788" d="M61 1456q0 50 34 83.5t85 33.5q50 0 83.5 -33.5t33.5 -83.5t-33.5 -83.5t-83.5 -33.5q-51 0 -85 33.5t-34 83.5zM492 1456q0 50 33.5 83.5t82.5 33.5q51 0 85 -33.5t34 -83.5t-34 -83.5t-85 -33.5q-49 0 -82.5 33.5t-33.5 83.5z" />
<glyph unicode="&#xa9;" horiz-adv-x="1638" d="M178 889q0 175 86 323t234 234t323 86q174 0 321 -86t232.5 -234t85.5 -323q0 -174 -85.5 -321.5t-232.5 -233.5t-321 -86q-175 0 -323 86t-234 233.5t-86 321.5zM303 889q0 -146 67 -268t186 -193.5t265 -71.5q145 0 263.5 71.5t185.5 193.5t67 268q0 147 -67 270 t-185.5 194.5t-263.5 71.5q-146 0 -265 -71.5t-186 -194.5t-67 -270zM485 891q0 183 96 286t238 103q75 0 129.5 -19.5t110.5 -62.5l-76 -100q-73 59 -156 59q-84 0 -135 -65.5t-51 -200.5q0 -129 50 -194.5t136 -65.5q97 0 172 69l70 -102q-107 -96 -248 -96 q-152 0 -244 102t-92 287z" />
<glyph unicode="&#xaa;" horiz-adv-x="1228" d="M211 901q0 136 112.5 209.5t321.5 73.5h109v57q0 83 -46 119.5t-143 36.5q-100 0 -237 -49l-49 127q164 61 311 61q336 0 336 -289v-397q0 -45 16 -68t51 -34l-41 -119q-133 15 -176 121q-105 -121 -264 -121q-139 0 -220 74t-81 198zM221 0v162h789v-162h-789zM397 909 q0 -151 158 -151q117 0 199 112v193h-103q-135 0 -194.5 -39t-59.5 -115z" />
<glyph unicode="&#xab;" horiz-adv-x="1128" d="M113 532v134l358 430l113 -72l-273 -424l273 -424l-113 -72zM543 532v134l360 430l113 -72l-273 -424l273 -424l-113 -72z" />
<glyph unicode="&#xac;" d="M127 561v158h770v-451h-170v293h-600z" />
<glyph unicode="&#xad;" horiz-adv-x="829" d="M125 561v160h580v-160h-580z" />
<glyph unicode="&#xae;" horiz-adv-x="1323" d="M137 1006q0 143 70 264t191 191.5t264 70.5t263 -70.5t189.5 -191.5t69.5 -264q0 -218 -152 -370.5t-370 -152.5q-143 0 -264 69.5t-191 190t-70 263.5zM250 1006q0 -178 118 -300t294 -122t292.5 122t116.5 300q0 179 -117 302.5t-292 123.5q-176 0 -294 -124t-118 -302 zM457 725v578h174q254 0 254 -175q0 -62 -36.5 -102.5t-98.5 -58.5l174 -242h-140l-151 221h-58v-221h-118zM575 1038h64q123 0 123 90q0 82 -127 82h-60v-172z" />
<glyph unicode="&#xaf;" horiz-adv-x="681" d="M61 1397v141h560v-141h-560z" />
<glyph unicode="&#xb0;" d="M113 1112q0 99 49 174.5t124.5 112.5t162.5 37q136 0 235.5 -88.5t99.5 -237.5q0 -148 -99 -235t-236 -87q-87 0 -162.5 37t-124.5 112.5t-49 174.5zM270 1112q0 -94 52.5 -145.5t126.5 -51.5q75 0 126.5 51t51.5 144q0 94 -51.5 145.5t-126.5 51.5t-127 -50.5 t-52 -144.5z" />
<glyph unicode="&#xb1;" d="M127 0v156h770v-156h-770zM127 561v156h297v307h176v-307h297v-156h-297v-254h-176v254h-297z" />
<glyph unicode="&#xb2;" horiz-adv-x="819" d="M102 1382q126 144 293 144q130 0 208.5 -69.5t78.5 -178.5q0 -105 -86 -219.5t-279 -278.5h385l-18 -129h-569v113q236 216 318.5 320t82.5 190q0 57 -36 90t-93 33q-51 0 -92 -22t-84 -75z" />
<glyph unicode="&#xb3;" horiz-adv-x="819" d="M76 768l100 88q78 -90 193 -90q81 0 126.5 39t45.5 104q0 135 -162 135h-76l16 123h52q63 0 104 29.5t41 89.5q0 55 -38.5 85t-100.5 30q-105 0 -193 -82l-84 94q130 113 283 113q134 0 213.5 -64t79.5 -159q0 -61 -42 -112t-116 -69v-6q76 -11 131.5 -70.5t55.5 -136.5 q0 -117 -92 -193.5t-240 -76.5q-182 0 -297 129z" />
<glyph unicode="&#xb4;" horiz-adv-x="608" d="M61 1407l390 229l96 -157l-428 -172z" />
<glyph unicode="&#xb5;" horiz-adv-x="1204" d="M201 -436v1515h188v-606q0 -54 1 -86t4 -72.5t9.5 -63.5t18.5 -47.5t29.5 -37.5t43 -21t58.5 -8q155 0 262 158v784h189v-731q0 -166 53 -348l-176 -25q-15 27 -28.5 79t-18.5 93q-45 -77 -121 -124.5t-152 -47.5q-127 0 -188 86l-8 -2q22 -104 22 -174v-299z" />
<glyph unicode="&#xb6;" horiz-adv-x="1503" d="M184 995q0 182 136.5 299t384.5 117h542v-1825l-170 -22v1696h-223v-1674l-170 -22v1022q-240 3 -370 117t-130 292z" />
<glyph unicode="&#xb7;" horiz-adv-x="542" d="M129 692q0 59 40.5 100.5t100.5 41.5q61 0 102.5 -41.5t41.5 -100.5q0 -60 -41.5 -101.5t-102.5 -41.5q-60 0 -100.5 41.5t-40.5 101.5z" />
<glyph unicode="&#xb8;" horiz-adv-x="595" d="M61 -442l58 104q64 -33 137 -33q121 0 121 82q0 51 -43.5 68.5t-134.5 17.5l18 236h125v-148q96 -9 144.5 -57.5t48.5 -116.5q0 -97 -73.5 -151t-182.5 -54q-129 0 -218 52z" />
<glyph unicode="&#xb9;" horiz-adv-x="819" d="M135 1341l297 172h125v-862h-154v688l-192 -104z" />
<glyph unicode="&#xba;" horiz-adv-x="1228" d="M203 1083q0 202 111 327.5t300 125.5q192 0 301 -122.5t109 -330.5q0 -204 -110 -329t-300 -125q-192 0 -301.5 123t-109.5 331zM221 0v162h789v-162h-789zM387 1083q0 -315 227 -315q226 0 226 315q0 314 -226 314q-227 0 -227 -314z" />
<glyph unicode="&#xbb;" horiz-adv-x="1128" d="M113 176l272 424l-272 424l112 72l359 -430v-134l-359 -428zM543 176l272 424l-272 424l112 72l361 -430v-134l-361 -428z" />
<glyph unicode="&#xbc;" horiz-adv-x="1884" d="M135 1260l297 172h125v-863h-154v688l-192 -104zM465 -100l829 1638l125 -61l-827 -1639zM1147 197v102l274 584l133 -54l-231 -507h190l15 215h141v-215h111v-125h-111v-197h-156v197h-366z" />
<glyph unicode="&#xbd;" horiz-adv-x="1884" d="M135 1260l297 172h125v-863h-154v688l-192 -104zM465 -100l829 1638l125 -61l-827 -1639zM1178 731q125 143 292 143q130 0 208.5 -69t78.5 -178q0 -106 -85.5 -220t-278.5 -278h385l-19 -129h-569v113q236 216 318.5 320t82.5 190q0 57 -36 89.5t-93 32.5 q-51 0 -92 -21.5t-84 -74.5z" />
<glyph unicode="&#xbe;" horiz-adv-x="1884" d="M76 686l100 88q78 -90 193 -90q81 0 126.5 39t45.5 104q0 136 -162 136h-76l16 122h52q63 0 104 29.5t41 89.5q0 55 -38.5 85t-100.5 30q-105 0 -193 -82l-84 94q130 113 283 113q134 0 213.5 -64t79.5 -159q0 -61 -42 -112t-116 -69v-6q76 -11 131.5 -70.5t55.5 -136.5 q0 -117 -92 -193.5t-240 -76.5q-182 0 -297 129zM465 -100l829 1638l125 -61l-827 -1639zM1147 197v102l274 584l133 -54l-231 -507h190l15 215h141v-215h111v-125h-111v-197h-156v197h-366z" />
<glyph unicode="&#xbf;" horiz-adv-x="1038" d="M133 -117q0 66 20.5 119t53 88t72 65.5t79.5 59t72.5 60.5t53 79.5t20.5 106.5v67h186v-77q0 -68 -20 -123.5t-51.5 -93.5t-70 -70.5t-77 -60.5t-70 -56.5t-51.5 -67t-20 -83.5q0 -84 56 -130.5t155 -46.5q158 0 280 148l131 -100q-176 -203 -428 -203q-94 0 -169.5 26.5 t-123 71.5t-73 102t-25.5 119zM449 881q0 60 40.5 101.5t100.5 41.5t101.5 -41.5t41.5 -101.5q0 -59 -41.5 -100.5t-101.5 -41.5t-100.5 41.5t-40.5 100.5z" />
<glyph unicode="&#xc0;" horiz-adv-x="1185" d="M12 0l459 1411h246l457 -1411h-205l-109 354h-543l-108 -354h-197zM344 1704l98 158l385 -226l-55 -100zM365 512h448l-219 723h-8z" />
<glyph unicode="&#xc1;" horiz-adv-x="1185" d="M12 0l459 1411h246l457 -1411h-205l-109 354h-543l-108 -354h-197zM352 1640l387 224l97 -158l-426 -166zM365 512h448l-219 723h-8z" />
<glyph unicode="&#xc2;" horiz-adv-x="1185" d="M12 0l459 1411h246l457 -1411h-205l-109 354h-543l-108 -354h-197zM252 1636l278 228h125l277 -228l-80 -92l-260 166l-258 -166zM365 512h448l-219 723h-8z" />
<glyph unicode="&#xc3;" horiz-adv-x="1185" d="M12 0l459 1411h246l457 -1411h-205l-109 354h-543l-108 -354h-197zM254 1632q78 183 231 183q42 0 78.5 -15.5t57.5 -34t45.5 -34t44.5 -15.5q32 0 54.5 20.5t49.5 67.5l117 -51q-81 -180 -232 -180q-40 0 -76 15.5t-57.5 33.5t-46.5 33.5t-45 15.5q-33 0 -54.5 -21 t-49.5 -69zM365 512h448l-219 723h-8z" />
<glyph unicode="&#xc4;" horiz-adv-x="1185" d="M12 0l459 1411h246l457 -1411h-205l-109 354h-543l-108 -354h-197zM260 1681q0 49 33.5 82t83.5 33q51 0 85 -33t34 -82q0 -51 -34 -83.5t-85 -32.5q-50 0 -83.5 32.5t-33.5 83.5zM365 512h448l-219 723h-8zM688 1681q0 49 34 82t85 33q50 0 84.5 -33t34.5 -82 q0 -50 -34.5 -83t-84.5 -33q-51 0 -85 32.5t-34 83.5z" />
<glyph unicode="&#xc5;" horiz-adv-x="1185" d="M12 0l459 1411h246l457 -1411h-205l-109 354h-543l-108 -354h-197zM358 1720q0 90 66.5 152.5t167.5 62.5t167 -62t66 -153q0 -92 -65.5 -154.5t-167.5 -62.5t-168 62.5t-66 154.5zM365 512h448l-219 723h-8zM481 1720q0 -54 30 -85t81 -31q50 0 79 31t29 85t-29 84.5 t-79 30.5q-51 0 -81 -30.5t-30 -84.5z" />
<glyph unicode="&#xc6;" horiz-adv-x="1626" d="M-25 0l562 1411h940l-23 -154h-633l115 -464h522v-154h-481l119 -485h465v-154h-623l-84 354h-547l-133 -354h-199zM365 512h454l-168 727h-10z" />
<glyph unicode="&#xc7;" horiz-adv-x="1169" d="M127 707q0 173 47 313.5t128 230t186.5 137.5t224.5 48q128 0 218 -34t179 -106l-106 -125q-125 105 -279 105q-82 0 -150 -30t-123.5 -94.5t-86.5 -177.5t-31 -267q0 -149 29.5 -260.5t83 -177.5t122.5 -98t154 -32q100 0 171.5 32.5t135.5 88.5l100 -127 q-160 -153 -399 -158v-90q96 -9 144.5 -57.5t48.5 -116.5q0 -97 -73.5 -151t-182.5 -54q-128 0 -217 52l57 104q64 -33 135 -33q123 0 123 82q0 51 -43.5 68.5t-134.5 17.5l14 189q-217 39 -346 226t-129 495z" />
<glyph unicode="&#xc8;" horiz-adv-x="1105" d="M215 0v1411h764l-23 -156h-546v-460h475v-156h-475v-483h585v-156h-780zM354 1704l99 158l385 -226l-56 -100z" />
<glyph unicode="&#xc9;" horiz-adv-x="1105" d="M215 0v1411h764l-23 -156h-546v-460h475v-156h-475v-483h585v-156h-780zM377 1636l387 224l96 -158l-426 -166z" />
<glyph unicode="&#xca;" horiz-adv-x="1105" d="M215 0v1411h764l-23 -156h-546v-460h475v-156h-475v-483h585v-156h-780zM250 1636l278 228h125l277 -228l-80 -92l-260 166l-258 -166z" />
<glyph unicode="&#xcb;" horiz-adv-x="1105" d="M215 0v1411h764l-23 -156h-546v-460h475v-156h-475v-483h585v-156h-780zM258 1681q0 49 33.5 82t83.5 33q51 0 85 -33t34 -82q0 -51 -34 -83.5t-85 -32.5q-50 0 -83.5 32.5t-33.5 83.5zM686 1681q0 49 34 82t85 33q50 0 84.5 -33t34.5 -82q0 -50 -34.5 -83t-84.5 -33 q-51 0 -85 32.5t-34 83.5z" />
<glyph unicode="&#xcc;" horiz-adv-x="626" d="M72 1704l98 158l385 -226l-55 -100zM215 0v1411h197v-1411h-197z" />
<glyph unicode="&#xcd;" horiz-adv-x="626" d="M72 1636l387 224l96 -158l-426 -166zM215 0v1411h197v-1411h-197z" />
<glyph unicode="&#xce;" horiz-adv-x="626" d="M-27 1636l279 228h125l276 -228l-80 -92l-260 166l-258 -166zM215 0v1411h197v-1411h-197z" />
<glyph unicode="&#xcf;" horiz-adv-x="626" d="M-18 1681q0 49 33 82t83 33q51 0 85 -33t34 -82q0 -51 -34 -83.5t-85 -32.5q-50 0 -83 32.5t-33 83.5zM215 0v1411h197v-1411h-197zM410 1681q0 50 33.5 82.5t84.5 32.5q50 0 84.5 -33t34.5 -82q0 -50 -34.5 -83t-84.5 -33q-51 0 -84.5 32.5t-33.5 83.5z" />
<glyph unicode="&#xd0;" horiz-adv-x="1343" d="M47 651v144h168v616h315q78 0 145.5 -7.5t139 -28.5t129 -54t109.5 -87.5t87.5 -126t56 -172t20.5 -222.5t-21 -223.5t-57 -173.5t-87.5 -128.5t-108.5 -91t-125 -57t-132 -31t-133 -8.5h-338v651h-168zM410 154h165q55 0 104.5 10t100 33t91 65.5t72.5 102t49.5 148.5 t17.5 200q0 100 -14 181t-37.5 136.5t-58.5 97t-71.5 65.5t-82.5 38.5t-86 19t-87 4.5h-163v-460h352v-144h-352v-497z" />
<glyph unicode="&#xd1;" horiz-adv-x="1411" d="M215 0v1411h258l559 -1200h8q-26 214 -26 512v688h182v-1411h-264l-553 1194h-8q6 -51 16 -207.5t10 -298.5v-688h-182zM360 1632q78 183 232 183q42 0 78 -15.5t57 -34t45.5 -34t44.5 -15.5q32 0 55 21t50 67l116 -51q-81 -180 -231 -180q-40 0 -76 15.5t-57.5 33.5 t-46.5 33.5t-45 15.5q-33 0 -55 -21t-50 -69z" />
<glyph unicode="&#xd2;" horiz-adv-x="1425" d="M127 702q0 347 160.5 540.5t425.5 193.5q266 0 425.5 -190t159.5 -541q0 -346 -160 -538t-425 -192q-267 0 -426.5 188.5t-159.5 538.5zM334 702q0 -296 100.5 -431.5t278.5 -135.5q379 0 379 570q0 571 -379 571t-379 -574zM465 1704l98 158l385 -226l-55 -100z" />
<glyph unicode="&#xd3;" horiz-adv-x="1425" d="M127 702q0 347 160.5 540.5t425.5 193.5q266 0 425.5 -190t159.5 -541q0 -346 -160 -538t-425 -192q-267 0 -426.5 188.5t-159.5 538.5zM334 702q0 -296 100.5 -431.5t278.5 -135.5q379 0 379 570q0 571 -379 571t-379 -574zM475 1636l387 224l96 -158l-426 -166z" />
<glyph unicode="&#xd4;" horiz-adv-x="1425" d="M127 702q0 347 160.5 540.5t425.5 193.5q266 0 425.5 -190t159.5 -541q0 -346 -160 -538t-425 -192q-267 0 -426.5 188.5t-159.5 538.5zM334 702q0 -296 100.5 -431.5t278.5 -135.5q379 0 379 570q0 571 -379 571t-379 -574zM373 1636l278 228h125l277 -228l-80 -92 l-260 166l-258 -166z" />
<glyph unicode="&#xd5;" horiz-adv-x="1425" d="M127 702q0 347 160.5 540.5t425.5 193.5q266 0 425.5 -190t159.5 -541q0 -346 -160 -538t-425 -192q-267 0 -426.5 188.5t-159.5 538.5zM334 702q0 -296 100.5 -431.5t278.5 -135.5q379 0 379 570q0 571 -379 571t-379 -574zM375 1632q78 183 231 183q42 0 78 -15.5 t57 -34t45.5 -34t44.5 -15.5q32 0 55 21t50 67l117 -51q-81 -180 -232 -180q-40 0 -76 15.5t-57.5 33.5t-46.5 33.5t-45 15.5q-33 0 -54.5 -21t-49.5 -69z" />
<glyph unicode="&#xd6;" horiz-adv-x="1425" d="M127 702q0 347 160.5 540.5t425.5 193.5q266 0 425.5 -190t159.5 -541q0 -346 -160 -538t-425 -192q-267 0 -426.5 188.5t-159.5 538.5zM334 702q0 -296 100.5 -431.5t278.5 -135.5q379 0 379 570q0 571 -379 571t-379 -574zM381 1681q0 49 33.5 82t83.5 33 q51 0 84.5 -32.5t33.5 -82.5q0 -51 -33.5 -83.5t-84.5 -32.5q-50 0 -83.5 32.5t-33.5 83.5zM809 1681q0 49 34 82t85 33q50 0 84.5 -33t34.5 -82q0 -50 -34.5 -83t-84.5 -33q-51 0 -85 32.5t-34 83.5z" />
<glyph unicode="&#xd7;" d="M156 367l241 241l-241 242l114 117l242 -244l242 244l114 -117l-241 -242l241 -241l-114 -115l-242 242l-242 -242z" />
<glyph unicode="&#xd8;" horiz-adv-x="1425" d="M127 702q0 347 160.5 540.5t425.5 193.5q52 0 129 -15l76 256l161 -43l-84 -270q143 -80 223 -248.5t80 -410.5q0 -346 -160 -538t-425 -192q-67 0 -129 15l-76 -258l-162 43l84 270q-143 80 -223 247t-80 410zM334 702q0 -384 166 -505l309 1069q-58 10 -96 10 q-379 0 -379 -574zM616 145q36 -10 97 -10q379 0 379 570q0 388 -166 507z" />
<glyph unicode="&#xd9;" horiz-adv-x="1376" d="M195 459v952h194v-944q0 -328 297 -328q152 0 225.5 81.5t73.5 246.5v944h197v-952q0 -219 -131 -351.5t-365 -132.5q-236 0 -363.5 131.5t-127.5 352.5zM424 1704l98 158l385 -226l-55 -100z" />
<glyph unicode="&#xda;" horiz-adv-x="1376" d="M195 459v952h194v-944q0 -328 297 -328q152 0 225.5 81.5t73.5 246.5v944h197v-952q0 -219 -131 -351.5t-365 -132.5q-236 0 -363.5 131.5t-127.5 352.5zM465 1636l387 224l96 -158l-426 -166z" />
<glyph unicode="&#xdb;" horiz-adv-x="1376" d="M195 459v952h194v-944q0 -328 297 -328q152 0 225.5 81.5t73.5 246.5v944h197v-952q0 -219 -131 -351.5t-365 -132.5q-236 0 -363.5 131.5t-127.5 352.5zM348 1636l279 228h125l276 -228l-80 -92l-260 166l-258 -166z" />
<glyph unicode="&#xdc;" horiz-adv-x="1376" d="M195 459v952h194v-944q0 -328 297 -328q152 0 225.5 81.5t73.5 246.5v944h197v-952q0 -219 -131 -351.5t-365 -132.5q-236 0 -363.5 131.5t-127.5 352.5zM354 1681q0 49 33.5 82t83.5 33q51 0 85 -33t34 -82q0 -51 -34 -83.5t-85 -32.5q-50 0 -83.5 32.5t-33.5 83.5z M782 1681q0 49 34 82t85 33q50 0 84.5 -33t34.5 -82q0 -50 -34.5 -83t-84.5 -33q-51 0 -85 32.5t-34 83.5z" />
<glyph unicode="&#xdd;" horiz-adv-x="1126" d="M10 1411h215l340 -690h8l340 690h203l-454 -868v-543h-197v541zM342 1636l387 224l96 -158l-426 -166z" />
<glyph unicode="&#xde;" horiz-adv-x="1208" d="M215 0v1411h195v-237h192q264 0 405.5 -111.5t141.5 -335.5q0 -121 -39.5 -211.5t-113 -146t-171 -82.5t-219.5 -27h-196v-260h-195zM410 414h215q153 0 236 69.5t83 239.5q0 154 -84.5 226.5t-236.5 72.5h-213v-608z" />
<glyph unicode="&#xdf;" horiz-adv-x="1218" d="M201 0v1092q0 216 109 330t308 114q162 0 262.5 -83t100.5 -214q0 -55 -23.5 -100.5t-56.5 -76.5t-66.5 -58t-57 -58.5t-23.5 -66.5t22.5 -66.5t58 -57t78.5 -52.5t86.5 -60.5t79 -73t58 -98.5t22.5 -129q0 -172 -110.5 -269.5t-274.5 -97.5q-152 0 -264 70l74 129 q79 -47 172 -47q100 0 155.5 52.5t55.5 154.5q0 52 -22 95.5t-57 74t-77 58.5t-84 56.5t-77 60t-57 76.5t-22 99q0 46 17 84.5t42.5 64t55.5 52t55.5 48.5t42.5 53.5t17 66.5q0 66 -45 116t-140 50q-113 0 -170 -67.5t-57 -217.5v-1104h-188z" />
<glyph unicode="&#xe0;" horiz-adv-x="1118" d="M92 309q0 168 131 258t377 90h139v84q0 112 -56 160.5t-177 48.5q-126 0 -283 -55l-49 139q190 70 361 70q200 0 296.5 -91.5t96.5 -260.5v-508q0 -62 18.5 -92t61.5 -46l-45 -131q-153 19 -199 152q-113 -152 -322 -152q-162 0 -256 91t-94 243zM299 317 q0 -101 47.5 -150.5t147.5 -49.5q148 0 245 149v266h-129q-166 0 -238.5 -55.5t-72.5 -159.5zM301 1464l96 158l385 -246l-59 -102z" />
<glyph unicode="&#xe1;" horiz-adv-x="1118" d="M92 309q0 168 131 258t377 90h139v84q0 112 -56 160.5t-177 48.5q-126 0 -283 -55l-49 139q190 70 361 70q200 0 296.5 -91.5t96.5 -260.5v-508q0 -62 18.5 -92t61.5 -46l-45 -131q-153 19 -199 152q-113 -152 -322 -152q-162 0 -256 91t-94 243zM299 317 q0 -101 47.5 -150.5t147.5 -49.5q148 0 245 149v266h-129q-166 0 -238.5 -55.5t-72.5 -159.5zM301 1376l385 244l96 -158l-420 -188z" />
<glyph unicode="&#xe2;" horiz-adv-x="1118" d="M92 309q0 168 131 258t377 90h139v84q0 112 -56 160.5t-177 48.5q-126 0 -283 -55l-49 139q190 70 361 70q200 0 296.5 -91.5t96.5 -260.5v-508q0 -62 18.5 -92t61.5 -46l-45 -131q-153 19 -199 152q-113 -152 -322 -152q-162 0 -256 91t-94 243zM201 1374l278 248h125 l277 -248l-82 -90l-256 186l-256 -186zM299 317q0 -101 47.5 -150.5t147.5 -49.5q148 0 245 149v266h-129q-166 0 -238.5 -55.5t-72.5 -159.5z" />
<glyph unicode="&#xe3;" horiz-adv-x="1118" d="M92 309q0 168 131 258t377 90h139v84q0 112 -56 160.5t-177 48.5q-126 0 -283 -55l-49 139q190 70 361 70q200 0 296.5 -91.5t96.5 -260.5v-508q0 -62 18.5 -92t61.5 -46l-45 -131q-153 19 -199 152q-113 -152 -322 -152q-162 0 -256 91t-94 243zM205 1393 q77 180 231 180q42 0 78.5 -15.5t57.5 -33.5t45.5 -33.5t44.5 -15.5q32 0 54.5 21.5t49.5 68.5l117 -52q-34 -80 -92 -131t-140 -51q-40 0 -76 15.5t-57.5 34t-46.5 34t-45 15.5q-31 0 -53.5 -21.5t-50.5 -69.5zM299 317q0 -101 47.5 -150.5t147.5 -49.5q148 0 245 149v266 h-129q-166 0 -238.5 -55.5t-72.5 -159.5z" />
<glyph unicode="&#xe4;" horiz-adv-x="1118" d="M92 309q0 168 131 258t377 90h139v84q0 112 -56 160.5t-177 48.5q-126 0 -283 -55l-49 139q190 70 361 70q200 0 296.5 -91.5t96.5 -260.5v-508q0 -62 18.5 -92t61.5 -46l-45 -131q-153 19 -199 152q-113 -152 -322 -152q-162 0 -256 91t-94 243zM217 1440q0 51 34 83.5 t85 32.5q50 0 83.5 -32.5t33.5 -83.5q0 -49 -33.5 -82t-83.5 -33q-51 0 -85 33t-34 82zM299 317q0 -101 47.5 -150.5t147.5 -49.5q148 0 245 149v266h-129q-166 0 -238.5 -55.5t-72.5 -159.5zM647 1440q0 51 33.5 83.5t83.5 32.5q51 0 85 -32.5t34 -83.5q0 -49 -34 -82 t-85 -33q-50 0 -83.5 33t-33.5 82z" />
<glyph unicode="&#xe5;" horiz-adv-x="1118" d="M92 309q0 168 131 258t377 90h139v84q0 112 -56 160.5t-177 48.5q-126 0 -283 -55l-49 139q190 70 361 70q200 0 296.5 -91.5t96.5 -260.5v-508q0 -62 18.5 -92t61.5 -46l-45 -131q-153 19 -199 152q-113 -152 -322 -152q-162 0 -256 91t-94 243zM299 317 q0 -101 47.5 -150.5t147.5 -49.5q148 0 245 149v266h-129q-166 0 -238.5 -55.5t-72.5 -159.5zM309 1479q0 92 66 154.5t168 62.5t167.5 -62.5t65.5 -154.5q0 -91 -66 -153t-167 -62t-167.5 62.5t-66.5 152.5zM434 1479q0 -54 29.5 -84.5t79.5 -30.5q51 0 79.5 30.5 t28.5 84.5t-28.5 84t-79.5 30q-50 0 -79.5 -30.5t-29.5 -83.5z" />
<glyph unicode="&#xe6;" horiz-adv-x="1720" d="M92 309q0 169 131 258.5t377 89.5h141v84q0 111 -57 160t-178 49q-126 0 -283 -55l-49 139q190 70 361 70q252 0 323 -176q111 176 318 176q210 0 323 -141.5t113 -391.5q0 -46 -4 -96h-688q12 -175 87.5 -260.5t202.5 -85.5q77 0 140.5 22.5t130.5 77.5l86 -125 q-161 -129 -361 -129q-126 0 -219 50t-151 135q-69 -95 -162 -140t-219 -45q-171 0 -267 90.5t-96 243.5zM297 319q0 -202 197 -202q170 0 276 190q-29 96 -29 225h-131q-313 0 -313 -213zM920 614h505q-6 340 -249 340q-113 0 -179.5 -85t-76.5 -255z" />
<glyph unicode="&#xe7;" horiz-adv-x="974" d="M117 535q0 123 31 226.5t90.5 180t152 119.5t209.5 43q187 0 326 -117l-92 -123q-63 47 -117.5 65.5t-116.5 18.5q-134 0 -207.5 -103.5t-73.5 -309.5q0 -400 281 -400q119 0 236 88l90 -129q-130 -107 -297 -117v-92q96 -9 144 -57.5t48 -116.5q0 -97 -73.5 -151 t-182.5 -54q-128 0 -217 52l58 104q64 -33 137 -33q121 0 121 82q0 51 -43.5 68.5t-135.5 17.5l15 187q-188 30 -285.5 175t-97.5 376z" />
<glyph unicode="&#xe8;" horiz-adv-x="1118" d="M117 539q0 250 122.5 407.5t333.5 157.5q210 0 323.5 -141.5t113.5 -391.5q0 -46 -4 -96h-689q12 -175 88 -260.5t203 -85.5q77 0 140.5 22.5t130.5 77.5l86 -125q-161 -129 -361 -129q-236 0 -361.5 152.5t-125.5 411.5zM317 614h506q-6 340 -250 340q-113 0 -179.5 -85 t-76.5 -255zM334 1464l96 158l385 -246l-59 -102z" />
<glyph unicode="&#xe9;" horiz-adv-x="1118" d="M117 539q0 250 122.5 407.5t333.5 157.5q210 0 323.5 -141.5t113.5 -391.5q0 -46 -4 -96h-689q12 -175 88 -260.5t203 -85.5q77 0 140.5 22.5t130.5 77.5l86 -125q-161 -129 -361 -129q-236 0 -361.5 152.5t-125.5 411.5zM317 614h506q-6 340 -250 340q-113 0 -179.5 -85 t-76.5 -255zM334 1376l385 244l96 -158l-420 -188z" />
<glyph unicode="&#xea;" horiz-adv-x="1118" d="M117 539q0 250 122.5 407.5t333.5 157.5q210 0 323.5 -141.5t113.5 -391.5q0 -46 -4 -96h-689q12 -175 88 -260.5t203 -85.5q77 0 140.5 22.5t130.5 77.5l86 -125q-161 -129 -361 -129q-236 0 -361.5 152.5t-125.5 411.5zM236 1374l278 248h125l276 -248l-81 -90 l-256 186l-256 -186zM317 614h506q-6 340 -250 340q-113 0 -179.5 -85t-76.5 -255z" />
<glyph unicode="&#xeb;" horiz-adv-x="1118" d="M117 539q0 250 122.5 407.5t333.5 157.5q210 0 323.5 -141.5t113.5 -391.5q0 -46 -4 -96h-689q12 -175 88 -260.5t203 -85.5q77 0 140.5 22.5t130.5 77.5l86 -125q-161 -129 -361 -129q-236 0 -361.5 152.5t-125.5 411.5zM242 1440q0 51 33.5 83.5t84.5 32.5 q50 0 83.5 -32.5t33.5 -83.5q0 -49 -33.5 -82t-83.5 -33q-51 0 -84.5 32.5t-33.5 82.5zM317 614h506q-6 340 -250 340q-113 0 -179.5 -85t-76.5 -255zM672 1440q0 51 33 83.5t83 32.5q51 0 85 -32.5t34 -83.5q0 -49 -34 -82t-85 -33q-50 0 -83 33t-33 82z" />
<glyph unicode="&#xec;" horiz-adv-x="571" d="M39 1464l96 158l385 -246l-59 -102zM190 0v1079h189v-1079h-189z" />
<glyph unicode="&#xed;" horiz-adv-x="571" d="M47 1376l385 244l96 -158l-419 -188zM190 0v1079h189v-1079h-189z" />
<glyph unicode="&#xee;" horiz-adv-x="571" d="M-55 1374l278 248h125l277 -248l-82 -90l-256 186l-256 -186zM190 0v1079h189v-1079h-189z" />
<glyph unicode="&#xef;" horiz-adv-x="571" d="M-47 1440q0 51 34 83.5t85 32.5q50 0 83 -32.5t33 -83.5q0 -49 -33 -82t-83 -33q-51 0 -85 33t-34 82zM190 0v1079h189v-1079h-189zM383 1440q0 51 33.5 83.5t83.5 32.5q51 0 84.5 -32.5t33.5 -83.5q0 -50 -33.5 -82.5t-84.5 -32.5q-50 0 -83.5 33t-33.5 82z" />
<glyph unicode="&#xf0;" horiz-adv-x="1159" d="M117 481q0 221 121 362.5t290 141.5q186 0 289 -125l6 2q-52 245 -233 385l-156 -160l-131 66l160 168q-95 45 -223 72l41 143q183 -41 294 -98l144 151l110 -96l-124 -129q177 -124 256 -323.5t79 -497.5q0 -257 -130.5 -412.5t-340.5 -155.5q-127 0 -228.5 58 t-162.5 174.5t-61 273.5zM309 489q0 -176 69.5 -270t188.5 -94q128 0 205.5 109t77.5 311q0 71 -6 135q-105 158 -287 158q-106 0 -177 -88.5t-71 -260.5z" />
<glyph unicode="&#xf1;" horiz-adv-x="1206" d="M201 0v1079h161l15 -147q65 82 156 127t188 45q293 0 293 -320v-784h-189v772q0 98 -38.5 141t-129.5 43q-80 0 -149 -50t-119 -124v-782h-188zM279 1393q77 180 231 180q42 0 78 -15.5t57 -33.5t45.5 -33.5t44.5 -15.5q32 0 55 21.5t50 68.5l116 -52q-78 -182 -231 -182 q-40 0 -76 15.5t-57.5 34t-46.5 34t-45 15.5q-32 0 -55 -22t-50 -69z" />
<glyph unicode="&#xf2;" horiz-adv-x="1196" d="M117 539q0 255 128.5 410t354.5 155q227 0 353 -151.5t126 -411.5q0 -255 -128 -410.5t-353 -155.5q-228 0 -354.5 152t-126.5 412zM319 539q0 -412 279 -412t279 414q0 411 -277 411q-281 0 -281 -413zM352 1464l97 158l385 -246l-60 -102z" />
<glyph unicode="&#xf3;" horiz-adv-x="1196" d="M117 539q0 255 128.5 410t354.5 155q227 0 353 -151.5t126 -411.5q0 -255 -128 -410.5t-353 -155.5q-228 0 -354.5 152t-126.5 412zM319 539q0 -412 279 -412t279 414q0 411 -277 411q-281 0 -281 -413zM360 1376l385 244l97 -158l-420 -188z" />
<glyph unicode="&#xf4;" horiz-adv-x="1196" d="M117 539q0 255 128.5 410t354.5 155q227 0 353 -151.5t126 -411.5q0 -255 -128 -410.5t-353 -155.5q-228 0 -354.5 152t-126.5 412zM256 1374l279 248h124l277 -248l-82 -90l-256 186l-256 -186zM319 539q0 -412 279 -412t279 414q0 411 -277 411q-281 0 -281 -413z" />
<glyph unicode="&#xf5;" horiz-adv-x="1196" d="M117 539q0 255 128.5 410t354.5 155q227 0 353 -151.5t126 -411.5q0 -255 -128 -410.5t-353 -155.5q-228 0 -354.5 152t-126.5 412zM260 1393q34 80 92 130t140 50q42 0 78 -15.5t57 -33.5t45.5 -33.5t44.5 -15.5q32 0 54.5 21.5t49.5 68.5l117 -52q-78 -182 -231 -182 q-40 0 -76.5 15.5t-58 34t-46.5 34t-45 15.5q-31 0 -53.5 -21.5t-50.5 -69.5zM319 539q0 -412 279 -412t279 414q0 411 -277 411q-281 0 -281 -413z" />
<glyph unicode="&#xf6;" horiz-adv-x="1196" d="M117 539q0 255 128.5 410t354.5 155q227 0 353 -151.5t126 -411.5q0 -255 -128 -410.5t-353 -155.5q-228 0 -354.5 152t-126.5 412zM266 1440q0 51 34 83.5t85 32.5q50 0 83.5 -32.5t33.5 -83.5q0 -49 -33.5 -82t-83.5 -33q-51 0 -85 33t-34 82zM319 539q0 -412 279 -412 t279 414q0 411 -277 411q-281 0 -281 -413zM696 1440q0 51 33.5 83.5t83.5 32.5q51 0 85 -32.5t34 -83.5q0 -49 -34 -82t-85 -33q-50 0 -83.5 33t-33.5 82z" />
<glyph unicode="&#xf7;" d="M127 561v158h770v-158h-770zM369 236q0 59 41.5 100t101.5 41t101.5 -41t41.5 -100q0 -60 -41.5 -102t-101.5 -42t-101.5 42t-41.5 102zM369 1047q0 59 41.5 100t101.5 41t101.5 -41t41.5 -100q0 -60 -41.5 -101t-101.5 -41t-101.5 41t-41.5 101z" />
<glyph unicode="&#xf8;" horiz-adv-x="1196" d="M117 539q0 255 128.5 410t354.5 155q44 0 96 -10l78 247l154 -45l-84 -256q113 -66 174 -195.5t61 -303.5q0 -255 -128 -410.5t-353 -155.5q-53 0 -96 11l-78 -254l-154 45l84 258q-114 66 -175.5 196t-61.5 308zM319 539q0 -268 109 -357l238 764q-40 4 -66 4 q-281 0 -281 -411zM535 133q30 -6 63 -6q279 0 279 414q0 262 -107 352z" />
<glyph unicode="&#xf9;" horiz-adv-x="1191" d="M190 295v784h189v-762q0 -105 36.5 -149.5t123.5 -44.5q79 0 148.5 47t115.5 119v790h188v-1079h-162l-14 143q-63 -81 -148.5 -124.5t-179.5 -43.5q-297 0 -297 320zM336 1464l96 158l385 -246l-59 -102z" />
<glyph unicode="&#xfa;" horiz-adv-x="1191" d="M190 295v784h189v-762q0 -105 36.5 -149.5t123.5 -44.5q79 0 148.5 47t115.5 119v790h188v-1079h-162l-14 143q-63 -81 -148.5 -124.5t-179.5 -43.5q-297 0 -297 320zM387 1376l385 244l96 -158l-419 -188z" />
<glyph unicode="&#xfb;" horiz-adv-x="1191" d="M190 295v784h189v-762q0 -105 36.5 -149.5t123.5 -44.5q79 0 148.5 47t115.5 119v790h188v-1079h-162l-14 143q-63 -81 -148.5 -124.5t-179.5 -43.5q-297 0 -297 320zM252 1374l278 248h125l277 -248l-82 -90l-256 186l-256 -186z" />
<glyph unicode="&#xfc;" horiz-adv-x="1191" d="M190 295v784h189v-762q0 -105 36.5 -149.5t123.5 -44.5q79 0 148.5 47t115.5 119v790h188v-1079h-162l-14 143q-63 -81 -148.5 -124.5t-179.5 -43.5q-297 0 -297 320zM260 1440q0 51 34 83.5t85 32.5q50 0 83.5 -32.5t33.5 -83.5q0 -49 -33.5 -82t-83.5 -33q-51 0 -85 33 t-34 82zM690 1440q0 51 33.5 83.5t83.5 32.5q51 0 85 -32.5t34 -83.5q0 -49 -34 -82t-85 -33q-50 0 -83.5 33t-33.5 82z" />
<glyph unicode="&#xfd;" horiz-adv-x="1005" d="M23 1079h200l279 -927h8l278 927h195l-360 -1085q-24 -72 -53 -129.5t-71 -111t-93.5 -91.5t-122.5 -64t-156 -34l-27 147q82 14 139 37t96 60.5t63 81.5t44 110h-63zM299 1376l385 244l96 -158l-420 -188z" />
<glyph unicode="&#xfe;" horiz-adv-x="1212" d="M201 -436v1949l188 23v-594q124 162 305 162q207 0 304.5 -148t97.5 -415q0 -166 -47.5 -292.5t-145 -200t-233.5 -73.5q-178 0 -281 123v-512zM389 260q41 -63 102.5 -97t133.5 -34q268 0 268 412q0 413 -244 413q-149 0 -260 -168v-526z" />
<glyph unicode="&#xff;" horiz-adv-x="1005" d="M23 1079h200l279 -927h8l278 927h195l-360 -1085q-24 -72 -53 -129.5t-71 -111t-93.5 -91.5t-122.5 -64t-156 -34l-27 147q82 14 139 37t96 60.5t63 81.5t44 110h-63zM174 1440q0 51 34 83.5t85 32.5q50 0 83.5 -32.5t33.5 -83.5q0 -49 -33.5 -82t-83.5 -33q-51 0 -85 33 t-34 82zM604 1440q0 51 33.5 83.5t83.5 32.5q51 0 85 -32.5t34 -83.5q0 -49 -34 -82t-85 -33q-50 0 -83.5 33t-33.5 82z" />
<glyph unicode="&#x152;" horiz-adv-x="1886" d="M139 702q0 173 44.5 313t123 231.5t183.5 140.5t227 49q89 0 172 -25h870l-22 -154h-621q131 -154 146 -464h403v-154h-403q-9 -322 -150 -485h664v-154h-893q-80 -25 -166 -25q-123 0 -228 47t-183 136t-122.5 229t-44.5 315zM346 702q0 -151 28.5 -262.5t80 -177 t117 -96.5t145.5 -31q184 0 268 132t84 438q0 301 -88.5 435t-263.5 134q-171 0 -271 -138.5t-100 -433.5z" />
<glyph unicode="&#x153;" horiz-adv-x="1855" d="M117 539q0 255 127.5 410t349.5 155q259 0 373 -223q46 100 133.5 161.5t210.5 61.5q210 0 323 -141.5t113 -391.5q0 -46 -4 -96h-688q12 -175 88 -260.5t203 -85.5q77 0 140 22.5t130 77.5l86 -125q-161 -129 -361 -129q-267 0 -376 220q-117 -220 -371 -220 q-225 0 -351 152.5t-126 411.5zM319 539q0 -410 275 -410q278 0 278 412q0 409 -278 409q-275 0 -275 -411zM1055 614h506q-6 340 -250 340q-113 0 -179.5 -85t-76.5 -255z" />
<glyph unicode="&#x178;" horiz-adv-x="1126" d="M10 1411h215l340 -690h8l340 690h203l-454 -868v-543h-197v541zM231 1681q0 49 33.5 82t83.5 33q51 0 85 -33t34 -82q0 -51 -34 -83.5t-85 -32.5q-50 0 -83.5 32.5t-33.5 83.5zM659 1681q0 49 34 82t85 33q50 0 84.5 -33t34.5 -82q0 -50 -34.5 -83t-84.5 -33 q-51 0 -85 32.5t-34 83.5z" />
<glyph unicode="&#x2c6;" horiz-adv-x="802" d="M61 1407l279 231h125l276 -231l-79 -92l-259 172l-260 -172z" />
<glyph unicode="&#x2dc;" horiz-adv-x="798" d="M61 1409q77 180 232 180q41 0 77 -15.5t56.5 -33.5t45.5 -33.5t46 -15.5q32 0 55 21.5t50 68.5l114 -53q-77 -180 -231 -180q-40 0 -76 15.5t-57 33.5t-45.5 33.5t-44.5 15.5q-33 0 -55 -21t-50 -69z" />
<glyph unicode="&#x2000;" horiz-adv-x="967" />
<glyph unicode="&#x2001;" horiz-adv-x="1935" />
<glyph unicode="&#x2002;" horiz-adv-x="967" />
<glyph unicode="&#x2003;" horiz-adv-x="1935" />
<glyph unicode="&#x2004;" horiz-adv-x="645" />
<glyph unicode="&#x2005;" horiz-adv-x="483" />
<glyph unicode="&#x2006;" horiz-adv-x="322" />
<glyph unicode="&#x2007;" horiz-adv-x="322" />
<glyph unicode="&#x2008;" horiz-adv-x="241" />
<glyph unicode="&#x2009;" horiz-adv-x="387" />
<glyph unicode="&#x200a;" horiz-adv-x="107" />
<glyph unicode="&#x2010;" horiz-adv-x="829" d="M125 561v160h580v-160h-580z" />
<glyph unicode="&#x2011;" horiz-adv-x="829" d="M125 561v160h580v-160h-580z" />
<glyph unicode="&#x2012;" horiz-adv-x="829" d="M125 561v160h580v-160h-580z" />
<glyph unicode="&#x2013;" horiz-adv-x="1064" d="M66 561v160h933v-160h-933z" />
<glyph unicode="&#x2014;" horiz-adv-x="1619" d="M66 561v160h1486v-160h-1486z" />
<glyph unicode="&#x2018;" horiz-adv-x="522" d="M113 1153q0 51 32 119l138 291h116l-69 -314q47 -32 47 -96q0 -54 -38.5 -91.5t-94.5 -37.5q-55 0 -93 37.5t-38 91.5z" />
<glyph unicode="&#x2019;" horiz-adv-x="522" d="M117 1024l69 313q-47 32 -47 97q0 54 39.5 91.5t93.5 37.5q56 0 95 -37.5t39 -91.5q0 -45 -35 -119l-138 -291h-116z" />
<glyph unicode="&#x201a;" horiz-adv-x="522" d="M117 -319l69 313q-47 32 -47 96q0 54 39.5 91.5t93.5 37.5q56 0 95 -37.5t39 -91.5q0 -45 -35 -119l-138 -290h-116z" />
<glyph unicode="&#x201c;" horiz-adv-x="894" d="M113 1153q0 51 32 119l138 291h116l-69 -314q47 -32 47 -96q0 -54 -38.5 -91.5t-94.5 -37.5q-55 0 -93 37.5t-38 91.5zM485 1153q0 49 33 119l137 291h117l-70 -314q48 -33 48 -96q0 -54 -40 -91.5t-94 -37.5q-55 0 -93 37.5t-38 91.5z" />
<glyph unicode="&#x201d;" horiz-adv-x="894" d="M117 1024l69 313q-47 32 -47 97q0 54 39.5 91.5t93.5 37.5q56 0 95 -37.5t39 -91.5q0 -45 -35 -119l-138 -291h-116zM489 1024l70 313q-47 32 -47 97q0 54 39.5 91.5t93.5 37.5q56 0 94.5 -37.5t38.5 -91.5q0 -45 -35 -119l-137 -291h-117z" />
<glyph unicode="&#x201e;" horiz-adv-x="890" d="M117 -319l69 313q-47 32 -47 96q0 54 39.5 91.5t93.5 37.5q56 0 95 -37.5t39 -91.5q0 -45 -35 -119l-138 -290h-116zM487 -319l70 313q-47 32 -47 96q0 54 39.5 91.5t93.5 37.5q55 0 93 -37.5t38 -91.5q0 -52 -33 -119l-137 -290h-117z" />
<glyph unicode="&#x2022;" horiz-adv-x="819" d="M156 700q0 109 72.5 180.5t181.5 71.5t181.5 -72.5t72.5 -181.5t-72.5 -180.5t-181.5 -71.5t-181.5 72.5t-72.5 181.5z" />
<glyph unicode="&#x2026;" horiz-adv-x="1626" d="M129 119q0 59 40.5 100t100.5 41q61 0 102.5 -41t41.5 -100q0 -60 -41.5 -102t-102.5 -42q-60 0 -100.5 42t-40.5 102zM670 119q0 59 41.5 100t101.5 41t100.5 -41t40.5 -100q0 -60 -40.5 -102t-100.5 -42t-101.5 42t-41.5 102zM1212 119q0 59 41 100t101 41 q61 0 102 -41t41 -100q0 -60 -41 -102t-102 -42q-60 0 -101 42t-41 102z" />
<glyph unicode="&#x202f;" horiz-adv-x="387" />
<glyph unicode="&#x2039;" horiz-adv-x="696" d="M113 532v134l358 430l113 -72l-273 -424l273 -424l-113 -72z" />
<glyph unicode="&#x203a;" horiz-adv-x="704" d="M113 176l272 424l-272 424l112 72l359 -430v-134l-359 -428z" />
<glyph unicode="&#x205f;" horiz-adv-x="483" />
<glyph unicode="&#x20ac;" horiz-adv-x="1150" d="M55 473l31 125h143v184h-174l31 127h162q44 234 177 358t327 124q190 0 333 -95l-90 -131q-110 70 -231 70q-129 0 -210 -76.5t-112 -249.5h492l-31 -127h-473v-184h434l-28 -125h-396q24 -179 102 -259.5t218 -80.5q165 0 287 103v-187q-130 -74 -295 -74 q-212 0 -342 126.5t-168 371.5h-187z" />
<glyph unicode="&#x2122;" horiz-adv-x="1843" d="M72 1280v131h690l-25 -131h-248v-670h-157v670h-260zM815 610l33 801h215l182 -543h8l166 543h221l31 -801h-153l-19 432q-2 35 -2 109q0 38 4 104h-8l-176 -561h-137l-195 561h-8q4 -66 4 -104q0 -74 -2 -109l-16 -432h-148z" />
<glyph unicode="&#x25fc;" horiz-adv-x="1075" d="M0 0v1075h1075v-1075h-1075z" />
<glyph unicode="&#xfb01;" horiz-adv-x="1198" d="M43 934v145h172v142q0 144 92.5 229.5t280.5 85.5q158 0 299 -74l-66 -131q-105 51 -225 51q-110 0 -151.5 -38.5t-41.5 -120.5v-144h603v-1079h-187v934h-416v-934h-188v934h-172z" />
<glyph unicode="&#xfb02;" horiz-adv-x="1220" d="M43 934v145h172v142q0 144 93.5 229.5t283.5 85.5q112 0 231 -39l181 35v-1315q0 -46 16 -66t53 -20q30 0 70 14l47 -133q-72 -37 -154 -37q-97 0 -158 59t-61 179v1135q-95 34 -217 34q-112 0 -154.5 -39t-42.5 -120v-144h248l-22 -145h-226v-934h-188v934h-172z" />
</font>
</defs>
</svg>
